#TITLE:SDO Vietnam;
#SUBTITLE:Sakura full moon;
#ARTIST:Akito;
#TITLETRANSLIT:;
#SUBTITLETRANSLIT:;
#ARTISTTRANSLIT:;
#CREDIT:;
#BANNER:skrfm-bn.png;
#BACKGROUND:skrfm-bg.png;
#LYRICSPATH:;
#CDTITLE:cdtitle.png;
#MUSIC:Sakura full moon - Akito.ogg;
#OFFSET:0.000;
#SAMPLESTART:100.000;
#SAMPLELENGTH:12.000;
#SELECTABLE:YES;
#DISPLAYBPM:138.000;
#BPMS:0.000=138.000,64.000=69.000,72.000=138.000,136.000=69.000,144.000=138.000,240.000=69.000;
#STOPS:;
#BGCHANGES:;
// cache tags:
#FIRSTBEAT:0.000;
#LASTBEAT:258.000;
#SONGFILENAME:Songs/Super Dancer Online/Sakura full moon/Sakura full moon - Akito.sm;
#HASMUSIC:1;
#HASBANNER:1;
#MUSICLENGTH:128.695;
// end cache tags

//---------------dance-single - ----------------
#NOTES:
     dance-single:
     :
     Hard:
     25:
     1.000,1.000,1.000,0.847,0.913,663.000,193.000,109.000,0.000,85.000:  // measure 1
1001
0000
0100
0010
0001
0000
0000
0000
,  // measure 2
1001
0000
1000
0100
0010
0000
0001
0000
,  // measure 3
1001
0000
0001
0010
0100
1000
0100
0000
,  // measure 4
1001
0010
0100
0000
1001
0000
0110
0000
,  // measure 5
0101
0000
0001
0010
0100
0000
0000
0000
,  // measure 6
1010
0001
0010
0000
0101
0000
0110
0000
,  // measure 7
1100
0000
0001
0010
0101
0000
1010
0000
,  // measure 8
1001
0000
0000
0000
0002
0000
0000
0000
0000
0000
0010
0100
0010
1000
0010
0100
,  // measure 9
1013
0100
0010
0000
0101
0000
0010
0000
1001
0010
0100
1000
0011
1000
0100
0010
,  // measure 10
1001
0010
0001
0000
1001
0010
0101
0000
1001
0010
0001
0000
0102
0010
1000
0000
,  // measure 11
1003
1000
0100
0000
1010
0010
1100
0000
1001
0001
0110
1000
0110
0001
0100
1000
,  // measure 12
0011
0010
1100
0000
0101
0100
0010
0000
1001
0010
0001
0010
1000
0010
0100
0001
,  // measure 13
1100
0000
0010
0000
0011
1000
0100
0000
0101
0000
0000
0100
0010
0000
0100
0000
,  // measure 14
0001
1000
0001
0100
1000
0001
0010
0100
1000
0001
0000
0010
0001
1000
0100
0000
,  // measure 15
1001
0010
0000
0010
0101
0000
0100
0010
1001
0010
0100
0000
1001
0010
0000
0010
,  // measure 16
0102
1000
0100
1000
0100
1000
0100
1000
0100
0010
0100
0010
0100
0010
0100
0010
,  // measure 17
2103
0000
0000
0000
0000
0000
3001
0010
0200
0000
0000
0000
0000
0000
0301
0010
,  // measure 18
0200
0000
0000
0000
0000
0000
0310
0000
0001
0000
0100
0000
1000
0000
0010
0000
0001
0000
0100
0000
2010
0000
0001
0000
3010
0000
0001
0000
0100
0000
0010
0100
,  // measure 19
0012
1000
0010
0100
0000
1000
0000
0100
1000
0000
0010
0000
1213
0000
0320
0000
,  // measure 20
1032
0000
0000
0000
1000
0000
0000
0100
1010
0000
0100
0000
0123
0000
0230
0000
,  // measure 21
2301
0000
0000
0000
0101
0000
0000
0010
3201
0000
2310
0000
0012
0000
3200
0000
,  // measure 22
1323
0000
0000
0000
1100
0000
0000
0000
0100
1000
0100
1000
0100
0000
1000
0000
,  // measure 23
1031
0100
1000
0000
0011
0000
0001
0100
1000
0000
1001
0100
0011
1000
0101
0010
,  // measure 24
1001
0100
0000
1000
0100
0000
0100
1000
0100
0000
1001
0100
0011
1000
0011
1000
,  // measure 25
0212
1000
1010
1323
0231
2301
3012
0123
,  // measure 26
1230
0000
0001
0000
1310
0001
0010
0000
0101
0000
1000
0000
0100
0010
0001
1000
,  // measure 27
0101
0000
0000
0010
0100
0000
0100
0010
1000
0100
0010
0000
0001
0010
0100
1000
,  // measure 28
0101
0000
0000
1000
0100
0000
0010
0100
0001
0010
0100
0000
1000
0100
0010
0001
,  // measure 29
1100
0000
0000
0001
0100
0000
0010
1000
0011
0000
0100
0000
1010
0000
0100
0000
,  // measure 30
0101
1000
0100
0000
0101
0000
0020
0000
1000
0100
0001
0030
0001
0010
0100
1000
,  // measure 31
0011
1000
0000
1000
0011
0000
0100
1000
0011
0100
1000
0000
0001
0010
0100
1000
,  // measure 32
0011
0100
0000
1000
0011
0000
0100
1000
0011
0100
1000
0000
2012
0000
0000
0000
,  // measure 33
3123
1000
0100
1000
0100
1000
0100
1000
0100
1000
0100
1000
0100
1000
0100
1000
,  // measure 34
0130
0010
0100
0010
0100
0010
0102
0010
2103
0010
3102
0010
2103
0010
3102
0010
,  // measure 35
2100
0003
0000
0000
0000
0000
3001
0000
0010
0000
0001
0000
0010
0000
0001
0000
2000
0000
0000
0000
0000
0000
3001
0010
0100
0000
1000
0000
0100
0000
1000
0000
,  // measure 36
0002
0000
0000
0000
0000
0000
1000
0100
0013
0000
0001
0000
0100
0000
1000
0000
0001
0000
0010
0000
2000
0000
0000
0010
3001
0100
0010
0000
1000
0000
0010
0000
,  // measure 37
1001
0000
0000
0000
1001
0000
0000
0100
0010
0100
0010
0000
1000
0000
0010
0000
,  // measure 38
1001
0000
0000
0000
1001
0000
0000
0001
0001
0010
0100
0000
1000
0000
0100
0000
,  // measure 39
1010
0000
0000
0000
0012
0000
0200
0013
2301
0010
3201
0000
0321
0000
0032
0000
,  // measure 40
2103
0000
3020
0000
0231
0000
0000
0010
0001
0010
0001
0000
1001
0000
0010
0000
,  // measure 41
1321
0000
0000
0030
1001
0000
0000
1000
0102
1000
0123
0000
1032
0000
0203
0000
,  // measure 42
2310
0000
0000
3000
1001
0000
0000
0001
2010
0001
3210
0000
2301
0000
3200
0000
,  // measure 43
1312
0000
0000
0003
1001
0000
0000
1000
0102
1000
0123
0000
1230
0000
2300
0000
,  // measure 44
3211
0000
0302
0000
1123
0000
0000
1000
1000
0100
0000
1000
0100
1000
0100
0000
,  // measure 45
1032
0000
0000
0000
1023
0000
0230
0001
2310
0001
0010
0000
0200
0000
0302
0000
,  // measure 46
0123
0000
0030
0000
3201
0000
0320
1000
1000
0130
1002
0000
0123
0000
1000
0000
,  // measure 47
2132
0000
0000
0000
3113
0000
0000
0001
0110
0000
0100
0000
0110
0000
1001
0000
,  // measure 48
1002
0000
0000
0000
1023
0000
0000
0001
1230
0001
1020
0000
2330
0000
0001
0000
,  // measure 49
3020
0000
0000
0000
2031
0000
3200
0001
1320
0001
1000
0000
1002
0000
0100
0000
,  // measure 50
2133
0000
0000
3000
1001
0000
0000
1001
1001
0110
0110
0000
0100
0000
0001
0000
,  // measure 51
1002
0000
0000
0000
1100
0000
0000
0010
0100
0000
1000
0000
2013
0000
0001
0000
,  // measure 52
3210
0000
0001
0000
0321
0000
0230
0001
2310
0000
0001
0100
0010
0000
3001
0000
,  // measure 53
1001
0100
0011
0100
1011
0000
0011
0100
1011
0100
0000
0100
0001
0000
0100
0000
,  // measure 54
1001
0010
0001
0100
1010
0001
1000
0100
1001
0010
0000
0010
1001
0100
0010
0000
,  // measure 55
1001
0100
0010
1000
0100
0010
1000
0010
1001
0010
0000
0100
1010
0100
0001
0000
,  // measure 56
1100
0001
1100
0010
1100
0001
1100
0010
1100
0010
0101
0010
1100
0001
0010
0000
,  // measure 57
1100
0001
0100
0010
0001
1000
0100
1000
0001
0100
0000
1000
0101
0010
0101
0000
,  // measure 58
0101
1000
0100
0001
1000
0100
0001
0000
1000
0001
0000
0010
0201
0000
0001
0000
,  // measure 59
2301
0100
0001
0010
0001
0100
0001
0010
3201
0010
2301
0010
3201
0010
2301
0010
,  // measure 60
3201
0010
1000
0010
0001
0010
1000
0010
2301
0010
0001
0100
0001
0010
0001
0100
,  // measure 61
3011
0000
0010
0100
1000
0000
0000
0000
1001
0000
0100
0010
0001
0000
0001
0000
,  // measure 62
1001
0000
0001
0010
0100
1000
0100
0000
1100
0110
0011
0000
1001
0000
0010
0000
,  // measure 63
1001
0000
0100
0010
0001
0000
0000
0000
0010
0100
1000
0000
1000
0000
0100
0000
,  // measure 64
0010
0000
0000
0000
0000
0000
0000
0000
0001
0000
0000
0000
0010
0000
0000
0000
0100
0000
0000
0000
0000
0000
0000
0000
0100
0000
0000
0000
0000
0000
0000
0000
0100
0000
0000
0000
0010
0000
0000
0000
0001
0000
0000
0000
0010
0000
0000
0000
0200
0020
0002
0000
0000
0000
0000
0000
0000
0000
0000
0000
0000
0000
0000
0000
,  // measure 65
2333
0000
3000
0000
;
